prostitutki-v-nijnem-novgorode.com - The Largest Bittorent System Login   |    Register
Latest Articles
Most searched
Hot torrents
Movie Torrents
View Torrent Info: Incredibles 2 (2018) [720p] [YTS] [YIFY]
View Torrent Info: BlacKkKlansman (2018) [720p] [YTS] [YIFY]
View Torrent Info: Adam Sandler: 100% Fresh (2018) [720p] [YTS] [YIFY]
View Torrent Info: Juliet, Naked (2018) [720p] [YTS] [YIFY]
View Torrent Info: The Dark (2018) [720p] [YTS] [YIFY]
View Torrent Info: Satyameva Jayate (2018) [720p] [YTS] [YIFY]
View Torrent Info: An Interview with God (2018) [720p] [YTS] [YIFY]
View Torrent Info: Galveston (2018) [720p] [YTS] [YIFY]
View Torrent Info: The Night Comes for Us (2018) [720p] [YTS] [YIFY]
View Torrent Info: Malicious (2018) [720p] [YTS] [YIFY]
Hot torrents
TV Torrents
View Torrent Info: The.Walking.Dead.S09E03.HDTV.x264-SVA[eztv]
View Torrent Info: Supergirl.S04E02.HDTV.x264-SVA[eztv]
View Torrent Info: Blindspot.S04E02.HDTV.x264-SVA[eztv]
View Torrent Info: How.to.Get.Away.with.Murder.S05E04.HDTV.x264-KILLERS[eztv]
View Torrent Info: Arrow.S07E02.HDTV.x264-SVA[eztv]
View Torrent Info: DCs.Legends.of.Tomorrow.S04E01.HDTV.x264-SVA[eztv]
View Torrent Info: The.Flash.2014.S05E03.HDTV.x264-SVA[eztv]
View Torrent Info: Titans.2018.S01E02.WEB.x264-PHOENiX[eztv]
View Torrent Info: The.Big.Bang.Theory.S12E05.HDTV.x264-SVA[eztv]
View Torrent Info: the.last.ship.s05e07.webrip.x264-tbs[eztv]
prostitutki-v-nijnem-novgorode.com > Categories > Movies torrents > Dubbed /Dual Audio torrents


Browse Movies torrents

The Dark Knight Trilogy (2005-2012) IMAX Special Edition 1080p 10bit Bluray x265 HEVC [Org DD 2.0 / 5.1 Hindi + DD 5.1 English] ESubs ~ TombDoc torrent



Download torrent: Download The Dark Knight Trilogy (2005-2012) IMAX Special Edition 1080p 10bit Bluray x265 HEVC [Org DD 2.0 / 5.1 Hindi + DD 5.1 English] ESubs ~ TombDoc torrent Magnet link Bookmark Torrent: The Dark Knight Trilogy (2005-2012) IMAX Special Edition 1080p 10bit Bluray x265 HEVC [Org DD 2.0 / 5.1 Hindi + DD 5.1 English] ESubs ~ TombDoc The Dark Knight Trilogy (2005-2012) IMAX Special Edition 1080p 10bit Bluray x265 HEVC [Org DD 2.0 / 5.1 Hindi + DD 5.1 English] ESubs ~ TombDoc torrent | if not working, try instead: Magnet Link
Info hash: B634F9BFBBC350857FE169541928D2FD4A8F9867
Category: Categories > Movies torrents > Dubbed /Dual Audio torrents
Trackers:
20    View all torrent trackers >
Health:
 seeds: 30 ,  leechers: 8 |  Update >
Total Size: 12.30 GB
Torrent status: Added by trusted uploader Added by trusted uploader Trusted Uploader Site Friend Superman Sun
Uploader: Trusted Uploader Site Friend Superman Sun
Torrent added: 2018-10-25 12:44:46
 

Download The Dark Knight Trilogy (2005-2012) IMAX Special Edition 1080p 10bit Bluray x265 HEVC [Org DD 2.0 / 5.1 Hindi + DD 5.1 English] ESubs ~ TombDoc torrent if not working, try downloading torrent using Download The Dark Knight Trilogy (2005-2012) IMAX Special Edition 1080p 10bit Bluray x265 HEVC [Org DD 2.0 / 5.1 Hindi + DD 5.1 English] ESubs ~ TombDoc via Magnet Link




Torrent Description




The night is darkest before the dawn....





The Dark Knight Trilogy (2005-2012) IMAX Special Edition 1080p 10bit Bluray x265 HEVC [Org DD 2.0 / 5.1 Hindi + DD 5.1 English] ESubs ~ TombDoc








Batman Begins (2005) REMASTERED 1080p 10bit BluRay x265 HEVC [Org DD 2.0 Hindi + DD 5.1 English] ESubs ~ TombDoc


Org Untouched DD+ 2.0 224Kbps Hindi Audio By NBT {Thanks}



Code:

Format                                   : Matroska
Format version                           : Version 4
File size                                : 3.56 GiB
Duration                                 : 2 h 20 min
Overall bit rate                         : 3 638 kb/s

Video
ID                                       : 1
Format                                   : HEVC
Format/Info                              : High Efficiency Video Coding
Format profile                           : Main [email protected]@Main
Codec ID                                 : V_MPEGH/ISO/HEVC
Duration                                 : 2 h 20 min
Bit rate                                 : 3 010 kb/s
Width                                    : 1 920 pixels
Height                                   : 800 pixels
Display aspect ratio                     : 2.40:1
Frame rate mode                          : Constant
Frame rate                               : 23.976 (24000/1001) FPS
Color space                              : YUV
Chroma subsampling                       : 4:2:0
Bit depth                                : 10 bits
Bits/(Pixel*Frame)                       : 0.082
Stream size                              : 2.94 GiB (83%)
Default                                  : Yes
Forced                                   : No
Color range                              : Limited
Color primaries                          : BT.709
Transfer characteristics                 : BT.709
Matrix coefficients                      : BT.709

Audio #1
ID                                       : 2
Format                                   : E-AC-3
Format/Info                              : Enhanced AC-3
Commercial name                          : Dolby Digital Plus
Codec ID                                 : A_EAC3
Duration                                 : 2 h 20 min
Bit rate mode                            : Constant
Bit rate                                 : 224 kb/s
Channel(s)                               : 2 channels
Channel layout                           : L R
Sampling rate                            : 48.0 kHz
Frame rate                               : 31.250 FPS (1536 SPF)
Compression mode                         : Lossy
Delay relative to video                  : 634 ms
Stream size                              : 224 MiB (6%)
Language                                 : Hindi
Service kind                             : Complete Main
Default                                  : Yes
Forced                                   : Yes

Audio #2
ID                                       : 3
Format                                   : AC-3
Format/Info                              : Audio Coding 3
Commercial name                          : Dolby Digital
Codec ID                                 : A_AC3
Duration                                 : 2 h 20 min
Bit rate mode                            : Constant
Bit rate                                 : 384 kb/s
Channel(s)                               : 6 channels
Channel layout                           : L R C LFE Ls Rs
Sampling rate                            : 48.0 kHz
Frame rate                               : 31.250 FPS (1536 SPF)
Bit depth                                : 16 bits
Compression mode                         : Lossy
Stream size                              : 385 MiB (11%)
Language                                 : English
Service kind                             : Complete Main
Default                                  : No
Forced                                   : No

Text #1
ID                                       : 4
Format                                   : PGS
Muxing mode                              : zlib
Codec ID                                 : S_HDMV/PGS
Codec ID/Info                            : Picture based subtitle format used on BDs/HD-DVDs
Duration                                 : 2 h 19 min
Bit rate                                 : 30.3 kb/s
Count of elements                        : 2946
Stream size                              : 30.2 MiB (1%)
Title                                    : Eng BD-PGS
Language                                 : English
Default                                  : Yes
Forced                                   : Yes

Text #2
ID                                       : 5
Format                                   : VobSub
Muxing mode                              : zlib
Codec ID                                 : S_VOBSUB
Codec ID/Info                            : Picture based subtitle format used on DVDs
Duration                                 : 2 h 19 min
Bit rate                                 : 9 138 b/s
Count of elements                        : 1473
Stream size                              : 9.10 MiB (0%)
Title                                    : Eng PGS
Language                                 : English
Default                                  : No
Forced                                   : Yes






The Dark Knight (2008) IMAX 1080p 10bit BluRay x265 HEVC [Org DD 2.0 Hindi + DD 5.1 English] ESubs ~ TombDoc


Org Untouched DD+ 2.0 224Kbps Hindi Audio By NBT {Thanks}



Code:

Format                                   : Matroska
Format version                           : Version 4
File size                                : 3.86 GiB
Duration                                 : 2 h 32 min
Overall bit rate                         : 3 633 kb/s

Video
ID                                       : 1
Format                                   : HEVC
Format/Info                              : High Efficiency Video Coding
Format profile                           : Main [email protected]@Main
Codec ID                                 : V_MPEGH/ISO/HEVC
Duration                                 : 2 h 32 min
Bit rate                                 : 3 000 kb/s
Width                                    : 1 920 pixels
Height                                   : 1 080 pixels
Display aspect ratio                     : 16:9
Frame rate mode                          : Constant
Frame rate                               : 23.976 (24000/1001) FPS
Color space                              : YUV
Chroma subsampling                       : 4:2:0
Bit depth                                : 10 bits
Bits/(Pixel*Frame)                       : 0.060
Stream size                              : 3.19 GiB (83%)
Default                                  : Yes
Forced                                   : No
Color range                              : Limited
Color primaries                          : BT.709
Transfer characteristics                 : BT.709
Matrix coefficients                      : BT.709

Audio #1
ID                                       : 2
Format                                   : E-AC-3
Format/Info                              : Enhanced AC-3
Commercial name                          : Dolby Digital Plus
Codec ID                                 : A_EAC3
Duration                                 : 2 h 32 min
Bit rate mode                            : Constant
Bit rate                                 : 224 kb/s
Channel(s)                               : 2 channels
Channel layout                           : L R
Sampling rate                            : 48.0 kHz
Frame rate                               : 31.250 FPS (1536 SPF)
Compression mode                         : Lossy
Delay relative to video                  : 820 ms
Stream size                              : 244 MiB (6%)
Language                                 : Hindi
Service kind                             : Complete Main
Default                                  : Yes
Forced                                   : Yes

Audio #2
ID                                       : 3
Format                                   : AC-3
Format/Info                              : Audio Coding 3
Commercial name                          : Dolby Digital
Codec ID                                 : A_AC3
Duration                                 : 2 h 32 min
Bit rate mode                            : Constant
Bit rate                                 : 384 kb/s
Channel(s)                               : 6 channels
Channel layout                           : L R C LFE Ls Rs
Sampling rate                            : 48.0 kHz
Frame rate                               : 31.250 FPS (1536 SPF)
Bit depth                                : 16 bits
Compression mode                         : Lossy
Stream size                              : 418 MiB (11%)
Language                                 : English
Service kind                             : Complete Main
Default                                  : No
Forced                                   : No

Text #1
ID                                       : 4
Format                                   : PGS
Muxing mode                              : zlib
Codec ID                                 : S_HDMV/PGS
Codec ID/Info                            : Picture based subtitle format used on BDs/HD-DVDs
Duration                                 : 2 h 30 min
Bit rate                                 : 38.8 kb/s
Count of elements                        : 4020
Stream size                              : 41.8 MiB (1%)
Title                                    : Eng BD-PGS
Language                                 : English
Default                                  : Yes
Forced                                   : Yes

Text #2
ID                                       : 5
Format                                   : VobSub
Muxing mode                              : zlib
Codec ID                                 : S_VOBSUB
Codec ID/Info                            : Picture based subtitle format used on DVDs
Duration                                 : 2 h 30 min
Bit rate                                 : 11.8 kb/s
Count of elements                        : 2010
Stream size                              : 12.7 MiB (0%)
Title                                    : Eng PGS
Language                                 : English
Default                                  : No
Forced                                   : Yes






The Dark Knight Rises (2012) IMAX 1080p 10bit BluRay x265 HEVC [Org DD 5.1 Hindi + DD 5.1 English] ESubs ~ TombDoc


Org Untouched DD+ 5.1 640Kbps Hindi Audio By NBT {Thanks}



Code:

Format                                   : Matroska
Format version                           : Version 4
File size                                : 4.69 GiB
Duration                                 : 2 h 44 min
Overall bit rate                         : 4 079 kb/s

Video
ID                                       : 1
Format                                   : HEVC
Format/Info                              : High Efficiency Video Coding
Format profile                           : Main [email protected]@Main
Codec ID                                 : V_MPEGH/ISO/HEVC
Duration                                 : 2 h 44 min
Bit rate                                 : 3 033 kb/s
Width                                    : 1 920 pixels
Height                                   : 1 080 pixels
Display aspect ratio                     : 16:9
Frame rate mode                          : Constant
Frame rate                               : 23.976 (24000/1001) FPS
Color space                              : YUV
Chroma subsampling                       : 4:2:0
Bit depth                                : 10 bits
Bits/(Pixel*Frame)                       : 0.061
Stream size                              : 3.49 GiB (74%)
Default                                  : Yes
Forced                                   : No
Color range                              : Limited
Color primaries                          : BT.709
Transfer characteristics                 : BT.709
Matrix coefficients                      : BT.709

Audio #1
ID                                       : 2
Format                                   : E-AC-3
Format/Info                              : Enhanced AC-3
Commercial name                          : Dolby Digital Plus
Codec ID                                 : A_EAC3
Duration                                 : 2 h 44 min
Bit rate mode                            : Constant
Bit rate                                 : 640 kb/s
Channel(s)                               : 6 channels
Channel layout                           : L R C LFE Ls Rs
Sampling rate                            : 48.0 kHz
Frame rate                               : 31.250 FPS (1536 SPF)
Compression mode                         : Lossy
Delay relative to video                  : 1 s 5 ms
Stream size                              : 753 MiB (16%)
Language                                 : Hindi
Service kind                             : Complete Main
Default                                  : Yes
Forced                                   : Yes

Audio #2
ID                                       : 3
Format                                   : AC-3
Format/Info                              : Audio Coding 3
Commercial name                          : Dolby Digital
Codec ID                                 : A_AC3
Duration                                 : 2 h 44 min
Bit rate mode                            : Constant
Bit rate                                 : 384 kb/s
Channel(s)                               : 6 channels
Channel layout                           : L R C LFE Ls Rs
Sampling rate                            : 48.0 kHz
Frame rate                               : 31.250 FPS (1536 SPF)
Bit depth                                : 16 bits
Compression mode                         : Lossy
Stream size                              : 452 MiB (9%)
Language                                 : English
Service kind                             : Complete Main
Default                                  : No
Forced                                   : No

Text #1
ID                                       : 4
Format                                   : PGS
Muxing mode                              : zlib
Codec ID                                 : S_HDMV/PGS
Codec ID/Info                            : Picture based subtitle format used on BDs/HD-DVDs
Duration                                 : 2 h 43 min
Bit rate                                 : 34.2 kb/s
Count of elements                        : 3826
Stream size                              : 40.0 MiB (1%)
Title                                    : Eng BD-PGS
Language                                 : English
Default                                  : Yes
Forced                                   : Yes

Text #2
ID                                       : 5
Format                                   : VobSub
Muxing mode                              : zlib
Codec ID                                 : S_VOBSUB
Codec ID/Info                            : Picture based subtitle format used on DVDs
Duration                                 : 2 h 43 min
Bit rate                                 : 10.3 kb/s
Count of elements                        : 1913
Stream size                              : 12.1 MiB (0%)
Title                                    : Eng PGS
Language                                 : English
Default                                  : No
Forced                                   : Yes









#McuDudeS -> To avoid fakes, ALWAYS check that the torrent was added on prostitutki-v-nijnem-novgorode.com by McuDudeS

http://prostitutki-v-nijnem-novgorode.com/



Download The Dark Knight Trilogy (2005-2012) IMAX Special Edition 1080p 10bit Bluray x265 HEVC [Org DD 2.0 / 5.1 Hindi + DD 5.1 English] ESubs ~ TombDoc torrent


Comments (please add your comment)
No comments



Home - Browse Torrents - Upload Torrent - Stat - Forum - FAQ - Login
prostitutki-v-nijnem-novgorode.com is in compliance with copyrights
2006-2018 prostitutki-v-nijnem-novgorode.com
SitemapLang: Russian | Shirts Tops | The Accounting Cycle and Closing Process Larry Walther Video English (15 reviews) Virtualization | BlacKkKlansman (2018) | Zu guter letzt