prostitutki-v-nijnem-novgorode.com - The Largest Bittorent System Login   |    Register
Latest Articles
Most searched
Hot torrents
Movie Torrents
View Torrent Info: Incredibles 2 (2018) [720p] [YTS] [YIFY]
View Torrent Info: Satyameva Jayate (2018) [720p] [YTS] [YIFY]
View Torrent Info: Galveston (2018) [720p] [YTS] [YIFY]
View Torrent Info: The Night Comes for Us (2018) [720p] [YTS] [YIFY]
View Torrent Info: Malicious (2018) [720p] [YTS] [YIFY]
View Torrent Info: Illang: The Wolf Brigade (2018) [720p] [YTS] [YIFY]
View Torrent Info: The Dark (2018) [720p] [YTS] [YIFY]
View Torrent Info: Thunder Road (2018) [720p] [YTS] [YIFY]
View Torrent Info: Hiccup (2018) [720p] [YTS] [YIFY]
View Torrent Info: The Super (2017) [720p] [YTS] [YIFY]
Hot torrents
TV Torrents
View Torrent Info: The.Walking.Dead.S09E03.HDTV.x264-SVA[eztv]
View Torrent Info: Supergirl.S04E02.HDTV.x264-SVA[eztv]
View Torrent Info: Blindspot.S04E02.HDTV.x264-SVA[eztv]
View Torrent Info: How.to.Get.Away.with.Murder.S05E04.HDTV.x264-KILLERS[eztv]
View Torrent Info: Arrow.S07E02.HDTV.x264-SVA[eztv]
View Torrent Info: Modern.Family.S10E04.HDTV.x264-PHOENiX[eztv]
View Torrent Info: DCs.Legends.of.Tomorrow.S04E01.HDTV.x264-SVA[eztv]
View Torrent Info: SEAL.Team.S02E03.HDTV.x264-PHOENiX[eztv]
View Torrent Info: NCIS.Los.Angeles.S10E04.HDTV.x264-SVA[eztv]
View Torrent Info: Titans.2018.S01E02.WEB.x264-PHOENiX[eztv]
prostitutki-v-nijnem-novgorode.com > Categories > TV torrents > HD torrents


Browse TV torrents

Z Nation S05E03 1080p WEB x264 [MW] torrent



Download torrent: Download Z Nation S05E03 1080p WEB x264 [MW] torrent Magnet link Bookmark Torrent: Z Nation S05E03 1080p WEB x264 [MW] Z Nation S05E03 1080p WEB x264 [MW] torrent | if not working, try instead: Magnet Link
Info hash: 4DA4089DED203370AA4B26EA139B1ABD30268401
Category: Categories > TV torrents > HD torrents
Trackers:
9    View all torrent trackers >
Health:
 seeds: 0 ,  leechers: 0 |  Update >
Torrent language:  
Total Size: 786.00 MB
Torrent status: Added by trusted uploader Added by trusted uploader Trusted Uploader Site Friend Superman Sun
Uploader: Trusted Uploader Site Friend Superman Sun
Torrent added: 2018-10-20 13:46:31
 

Download Z Nation S05E03 1080p WEB x264 [MW] torrent if not working, try downloading torrent using Download Z Nation S05E03 1080p WEB x264 [MW] via Magnet Link




Torrent Description





General
Format                                   : Matroska
Format version                           : Version 4 / Version 2
File size                                : 786 MiB
Duration                                 : 42 min 55 s
Overall bit rate                         : 2 561 kb/s

Video
ID                                       : 1
Format                                   : AVC
Format/Info                              : Advanced Video Codec
Format profile                           : [email protected]
Format settings                          : CABAC / 4 Ref Frames
Format settings, CABAC                   : Yes
Format settings, RefFrames               : 4 frames
Codec ID                                 : V_MPEG4/ISO/AVC
Duration                                 : 42 min 54 s
Bit rate                                 : 2 500 kb/s
Width                                    : 1 920 pixels
Height                                   : 1 080 pixels
Display aspect ratio                     : 16:9
Frame rate mode                          : Constant
Frame rate                               : 23.976 (24000/1001) FPS
Color space                              : YUV
Chroma subsampling                       : 4:2:0
Bit depth                                : 8 bits
Scan type                                : Progressive
Bits/(Pixel*Frame)                       : 0.050
Stream size                              : 756 MiB (96%)
Writing library                          : x264 core 155 r2901 7d0ff22
Default                                  : Yes
Forced                                   : No

Audio
ID                                       : 2
Format                                   : AAC
Format/Info                              : Advanced Audio Codec
Format profile                           : LC
Codec ID                                 : A_AAC-2
Duration                                 : 42 min 55 s
Bit rate                                 : 96.0 kb/s
Channel(s)                               : 2 channels
Channel positions                        : Front: L R
Sampling rate                            : 44.1 kHz
Frame rate                               : 43.066 FPS (1024 SPF)
Compression mode                         : Lossy
Stream size                              : 29.4 MiB (4%)
Language                                 : English
Default                                  : Yes
Forced                                   : No


Click To Enlarge Image









#moviezworldz -> To avoid fakes, ALWAYS check that the torrent was added on prostitutki-v-nijnem-novgorode.com by moviezworldz

http://prostitutki-v-nijnem-novgorode.com/



Download Z Nation S05E03 1080p WEB x264 [MW] torrent


Comments (please add your comment)
No comments



Home - Browse Torrents - Upload Torrent - Stat - Forum - FAQ - Login
prostitutki-v-nijnem-novgorode.com is in compliance with copyrights
2006-2018 prostitutki-v-nijnem-novgorode.com
SitemapTurkce Pop mp3 | Nintendo Ovp Gamescom 2018 Merchandise Set 4xpins + Lanyard Mario Kart Zelda | contact us Halloween el Origen BluRay 1080p | KUN ANTA (HUMOOD ALKHUDHER ) VERSI CEWEK CANTIK | What Should Sephora’s Marketing Objectives Be for 2011?