prostitutki-v-nijnem-novgorode.com - The Largest Bittorent System Login   |    Register
Latest Articles
Most searched
Hot torrents
Movie Torrents
View Torrent Info: Incredibles 2 (2018) [720p] [YTS] [YIFY]
View Torrent Info: BlacKkKlansman (2018) [720p] [YTS] [YIFY]
View Torrent Info: The Witch in the Window (2018) [720p] [YTS] [YIFY]
View Torrent Info: The Scorpion King: Book of Souls (2018) [720p] [YTS] [YIFY]
View Torrent Info: Juliet, Naked (2018) [720p] [YTS] [YIFY]
View Torrent Info: Galveston (2018) [720p] [YTS] [YIFY]
View Torrent Info: The Night Comes for Us (2018) [720p] [YTS] [YIFY]
View Torrent Info: Malicious (2018) [720p] [YTS] [YIFY]
View Torrent Info: An Interview with God (2018) [720p] [YTS] [YIFY]
View Torrent Info: Adam Sandler: 100% Fresh (2018) [720p] [YTS] [YIFY]
Hot torrents
TV Torrents
View Torrent Info: Supergirl.S04E02.HDTV.x264-SVA[eztv]
View Torrent Info: Arrow.S07E02.HDTV.x264-SVA[eztv]
View Torrent Info: DCs.Legends.of.Tomorrow.S04E01.HDTV.x264-SVA[eztv]
View Torrent Info: The.Flash.2014.S05E03.HDTV.x264-SVA[eztv]
View Torrent Info: The.Big.Bang.Theory.S12E06.HDTV.x264-SVA[eztv]
View Torrent Info: the.last.ship.s05e07.webrip.x264-tbs[eztv]
View Torrent Info: The.Walking.Dead.S09E03.HDTV.x264-SVA[eztv]
View Torrent Info: family.guy.s17e04.web.x264-tbs[eztv]
View Torrent Info: Titans.2018.S01E03.WEB.x264-PHOENiX[eztv]
View Torrent Info: Supergirl.S04E02.XviD-AFG[eztv]
prostitutki-v-nijnem-novgorode.com > Categories > TV torrents > HEVC/x265 torrents


Browse TV torrents

The Good Doctor S02E03 (1080p AMZN WEB-DL x265 HEVC 10bit AC3 5.1 Qman) [UTR] torrent



Download torrent: Download The Good Doctor S02E03 (1080p AMZN WEB-DL x265 HEVC 10bit AC3 5.1 Qman) [UTR] torrent Magnet link Bookmark Torrent: The Good Doctor S02E03 (1080p AMZN WEB-DL x265 HEVC 10bit AC3 5.1 Qman) [UTR] The Good Doctor S02E03 (1080p AMZN WEB-DL x265 HEVC 10bit AC3 5.1 Qman) [UTR] torrent | if not working, try instead: Magnet Link
Info hash: F6A2A499872FB3BC05D87563CDF9D51C77A9FC67
Category: Categories > TV torrents > HEVC/x265 torrents
Trackers:
6    View all torrent trackers >
Health:
 seeds: 0 ,  leechers: 0 |  Update >
Torrent language:  
Total Size: 1.00 GB
Torrent status: Added by trusted uploader Added by trusted uploader Trusted Uploader Site Friend Superman Sun
Uploader: Trusted Uploader Site Friend Superman Sun
Torrent added: 2018-10-18 20:37:58
 

Download The Good Doctor S02E03 (1080p AMZN WEB-DL x265 HEVC 10bit AC3 5.1 Qman) [UTR] torrent if not working, try downloading torrent using Download The Good Doctor S02E03 (1080p AMZN WEB-DL x265 HEVC 10bit AC3 5.1 Qman) [UTR] via Magnet Link




Torrent Description







Media Information

Media Information


Code:

General
Format                                   : Matroska
Format version                           : Version 4 / Version 2
File size                                : 1.02 GiB
Duration                                 : 43 min 4 s
Overall bit rate                         : 3 398 kb/s
Encoded date                             : UTC 2018-10-17 14:38:19
Writing application                      : mkvmerge v27.0.0 ('Metropolis') 64-bit
Writing library                          : libebml v1.3.6 + libmatroska v1.4.9

Video
ID                                       : 1
Format                                   : HEVC
Format/Info                              : High Efficiency Video Coding
Format profile                           : Main [email protected]@Main
Codec ID                                 : V_MPEGH/ISO/HEVC
Duration                                 : 43 min 4 s
Bit rate                                 : 2 756 kb/s
Width                                    : 1 920 pixels
Height                                   : 1 080 pixels
Display aspect ratio                     : 16:9
Frame rate mode                          : Constant
Frame rate                               : 23.976 (24000/1001) FPS
Color space                              : YUV
Chroma subsampling                       : 4:2:0
Bit depth                                : 10 bits
Bits/(Pixel*Frame)                       : 0.055
Stream size                              : 849 MiB (81%)
Writing library                          : x265 2.8+74-fd517ae68f93:[Windows][MSVC 1915][64 bit] 10bit
Encoding settings                        : cpuid=1111039 / frame-threads=4 / numa-pools=16 / wpp / no-pmode / no-pme / no-psnr / no-ssim / log-level=2 / input-csp=1 / input-res=1920x1080 / interlace=0 / total-frames=61977 / level-idc=0 / high-tier=1 / uhd-bd=0 / ref=4 / no-allow-non-conformance / no-repeat-headers / annexb / no-aud / no-hrd / info / hash=0 / no-temporal-layers / open-gop / min-keyint=23 / keyint=250 / gop-lookahead=0 / bframes=8 / b-adapt=2 / b-pyramid / bframe-bias=0 / rc-lookahead=50 / lookahead-slices=4 / scenecut=40 / radl=0 / no-intra-refresh / ctu=64 / min-cu-size=8 / no-rect / no-amp / max-tu-size=32 / tu-inter-depth=1 / tu-intra-depth=1 / limit-tu=0 / rdoq-level=2 / dynamic-rd=0.00 / no-ssim-rd / signhide / no-tskip / nr-intra=0 / nr-inter=0 / no-constrained-intra / no-strong-intra-smoothing / max-merge=3 / limit-refs=3 / limit-modes / me=3 / subme=3 / merange=57 / temporal-mvp / weightp / no-weightb / no-analyze-src-pics / deblock=1:1 / no-sao / no-sao-non-deblock / rd=4 / no-early-skip / no-rskip / no-fast-intra / no-tskip-fast / no-cu-lossless / no-b-intra / no-splitrd-skip / rdpenalty=0 / psy-rd=1.40 / psy-rdoq=1.00 / no-rd-refine / no-lossless / cbqpoffs=0 / crqpoffs=0 / rc=crf / crf=21.0 / qcomp=0.60 / qpstep=4 / stats-write=0 / stats-read=0 / ipratio=1.40 / pbratio=1.30 / aq-mode=2 / aq-strength=1.00 / cutree / zone-count=0 / no-strict-cbr / qg-size=32 / no-rc-grain / qpmax=69 / qpmin=0 / no-const-vbv / sar=0 / overscan=0 / videoformat=5 / range=0 / colorprim=2 / transfer=2 / colormatrix=2 / chromaloc=0 / display-window=0 / max-cll=0,0 / min-luma=0 / max-luma=1023 / log2-max-poc-lsb=8 / vui-timing-info / vui-hrd-info / slices=1 / no-opt-qp-pps / no-opt-ref-list-length-pps / no-multi-pass-opt-rps / scenecut-bias=0.05 / no-opt-cu-delta-qp / no-aq-motion / no-hdr / no-hdr-opt / no-dhdr10-opt / no-idr-recovery-sei / analysis-reuse-level=5 / scale-factor=0 / refine-intra=0 / refine-inter=0 / refine-mv=0 / no-limit-sao / ctu-info=0 / no-lowpass-dct / refine-mv-type=0 / copy-pic=1 / max-ausize-factor=1.0 / no-dynamic-refine / no-single-sei
Language                                 : English
Default                                  : Yes
Forced                                   : No

Audio
ID                                       : 2
Format                                   : E-AC-3
Format/Info                              : Enhanced Audio Coding 3
Format settings, Endianness              : Big
Codec ID                                 : A_EAC3
Duration                                 : 43 min 4 s
Bit rate mode                            : Constant
Bit rate                                 : 640 kb/s
Channel(s)                               : 6 channels
Channel positions                        : Front: L C R, Side: L R, LFE
Sampling rate                            : 48.0 kHz
Frame rate                               : 187.500 FPS (256 spf)
Compression mode                         : Lossy
Stream size                              : 197 MiB (19%)
Language                                 : English
Default                                  : Yes
Forced                                   : No

Subtitle
ID                                       : 3
Format                                   : UTF-8
Codec ID                                 : S_TEXT/UTF8
Codec ID/Info                            : UTF-8 Plain Text
Duration                                 : 42 min 25 s
Bit rate                                 : 86 b/s
Count of elements                        : 818
Stream size                              : 26.8 KiB (0%)
Language                                 : English
Default                                  : Yes
Forced                                   : No



Source Information


Code:

Release:
Unknown Source/NO-GROUP






#UTRCorp -> To avoid fakes, ALWAYS check that the torrent was added on prostitutki-v-nijnem-novgorode.com by UTRCorp

http://prostitutki-v-nijnem-novgorode.com/



Download The Good Doctor S02E03 (1080p AMZN WEB-DL x265 HEVC 10bit AC3 5.1 Qman) [UTR] torrent


Comments (please add your comment)
No comments



Home - Browse Torrents - Upload Torrent - Stat - Forum - FAQ - Login
prostitutki-v-nijnem-novgorode.com is in compliance with copyrights
2006-2018 prostitutki-v-nijnem-novgorode.com
SitemapHarley Davidson 883 R | Cinderella III: A Twist in Time (2007) | Kenangan Band - Tolong Jaga Dia Shisha no Teikoku Sub Indo Batch Lengkap | Nerima Daikon Brothers (12) | Bookmark This Torrent