prostitutki-v-nijnem-novgorode.com - The Largest Bittorent System Login   |    Register
Latest Articles
Most searched
Hot torrents
Movie Torrents
View Torrent Info: Incredibles 2 (2018) [720p] [YTS] [YIFY]
View Torrent Info: Satyameva Jayate (2018) [720p] [YTS] [YIFY]
View Torrent Info: Galveston (2018) [720p] [YTS] [YIFY]
View Torrent Info: The Night Comes for Us (2018) [720p] [YTS] [YIFY]
View Torrent Info: Malicious (2018) [720p] [YTS] [YIFY]
View Torrent Info: Illang: The Wolf Brigade (2018) [720p] [YTS] [YIFY]
View Torrent Info: The Dark (2018) [720p] [YTS] [YIFY]
View Torrent Info: Thunder Road (2018) [720p] [YTS] [YIFY]
View Torrent Info: Hiccup (2018) [720p] [YTS] [YIFY]
View Torrent Info: The Super (2017) [720p] [YTS] [YIFY]
Hot torrents
TV Torrents
View Torrent Info: The.Walking.Dead.S09E03.HDTV.x264-SVA[eztv]
View Torrent Info: Supergirl.S04E02.HDTV.x264-SVA[eztv]
View Torrent Info: Blindspot.S04E02.HDTV.x264-SVA[eztv]
View Torrent Info: How.to.Get.Away.with.Murder.S05E04.HDTV.x264-KILLERS[eztv]
View Torrent Info: Arrow.S07E02.HDTV.x264-SVA[eztv]
View Torrent Info: Modern.Family.S10E04.HDTV.x264-PHOENiX[eztv]
View Torrent Info: DCs.Legends.of.Tomorrow.S04E01.HDTV.x264-SVA[eztv]
View Torrent Info: SEAL.Team.S02E03.HDTV.x264-PHOENiX[eztv]
View Torrent Info: NCIS.Los.Angeles.S10E04.HDTV.x264-SVA[eztv]
View Torrent Info: Titans.2018.S01E02.WEB.x264-PHOENiX[eztv]
prostitutki-v-nijnem-novgorode.com > Categories > Movies torrents > Dubbed /Dual Audio torrents


Browse Movies torrents

The Dark Knight Trilogy (2005-2012) 1080p BluRay Dual Audio [Hindi - English] - Esub ~Ranvijay torrent



Download torrent: Download The Dark Knight Trilogy (2005-2012) 1080p BluRay Dual Audio [Hindi - English] - Esub ~Ranvijay torrent Magnet link Bookmark Torrent: The Dark Knight Trilogy (2005-2012) 1080p BluRay Dual Audio [Hindi - English] - Esub ~Ranvijay The Dark Knight Trilogy (2005-2012) 1080p BluRay Dual Audio [Hindi - English] - Esub ~Ranvijay torrent | if not working, try instead: Magnet Link
Info hash: 87448C8BAA8C8602BF4178872DE2D45130647C32
Category: Categories > Movies torrents > Dubbed /Dual Audio torrents
Trackers:
36    View all torrent trackers >
Health:
 seeds: 5 ,  leechers: 2 |  Update >
Total Size: 16.60 GB
Torrent status: Added by trusted uploader Added by trusted uploader Trusted Uploader Site Friend Superman Sun
Uploader: Trusted Uploader Site Friend Superman Sun
Torrent added: 2018-06-21 17:09:37
 

Download The Dark Knight Trilogy (2005-2012) 1080p BluRay Dual Audio [Hindi - English] - Esub ~Ranvijay torrent if not working, try downloading torrent using Download The Dark Knight Trilogy (2005-2012) 1080p BluRay Dual Audio [Hindi - English] - Esub ~Ranvijay via Magnet Link




Torrent Description



The Dark Knight Trilogy (2005-2012) 1080p BluRay Dual Audio [Hindi - English] - Esub ~Ranvijay

Thanks To [email protected] & Blood Warrior For Hindi Audio

Buy RDP Online




Batman Begins (2005) 1080p BluRay x264 Dual Audio [Hindi DD2.0 - English DD5.1] - Esub ~ Ranvijay

Format                                   : Matroska
Format version                           : Version 4 / Version 2
File size                                : 5.03 GiB
Duration                                 : 2 h 20 min
Overall bit rate                         : 5 142 kb/s
Movie name                               : Batman Begins (2005) 1080p BluRay x264 Dual Audio [Hindi DD2.0 - English DD5.1] - Esub ~ Ranvijay

Video
ID                                       : 1
Format                                   : AVC
Duration                                 : 2 h 20 min
Bit rate                                 : 4 464 kb/s
Width                                    : 1 920 pixels
Height                                   : 800 pixels
Display aspect ratio                     : 2.40:1
Frame rate mode                          : Constant
Frame rate                               : 23.976 (24000/1001) FPS
Color space                              : YUV
Chroma subsampling                       : 4:2:0
Bit depth                                : 8 bits
Scan type                                : Progressive
Bits/(Pixel*Frame)                       : 0.121
Stream size                              : 4.37 GiB (87%)
Title                                    : ~Ranvijay~
Language                                 : English
Default                                  : Yes
Forced                                   : No

Audio #1
ID                                       : 2
Format                                   : AC-3
Format/Info                              : Audio Coding 3
Codec ID                                 : A_AC3
Duration                                 : 2 h 20 min
Bit rate mode                            : Constant
Bit rate                                 : 224 kb/s
Channel(s)                               : 2 channels
Channel positions                        : Front: L R
Sampling rate                            : 44.1 kHz
Frame rate                               : 28.711 FPS (1536 SPF)
Bit depth                                : 16 bits
Compression mode                         : Lossy
Delay relative to video                  : 40 ms
Stream size                              : 224 MiB (4%)
Title                                    : ~Ranvijay~
Language                                 : Hindi
Service kind                             : Complete Main
Default                                  : Yes
Forced                                   : No

Audio #2
ID                                       : 3
Format                                   : AC-3
Format/Info                              : Audio Coding 3
Codec ID                                 : A_AC3
Duration                                 : 2 h 20 min
Bit rate mode                            : Constant
Bit rate                                 : 448 kb/s
Channel(s)                               : 6 channels
Channel positions                        : Front: L C R, Side: L R, LFE
Sampling rate                            : 48.0 kHz
Frame rate                               : 31.250 FPS (1536 SPF)
Bit depth                                : 16 bits
Compression mode                         : Lossy
Stream size                              : 449 MiB (9%)
Title                                    : ~Ranvijay~
Language                                 : English
Service kind                             : Complete Main
Default                                  : No
Forced                                   : No

Text
ID                                       : 4
Format                                   : VobSub
Muxing mode                              : zlib
Codec ID                                 : S_VOBSUB
Codec ID/Info                            : Picture based subtitle format used on DVDs
Duration                                 : 2 h 19 min
Bit rate                                 : 5 334 b/s
Count of elements                        : 1473
Stream size                              : 5.31 MiB (0%)
Title                                    : ~Ranvijay~
Language                                 : English
Default                                  : Yes
Forced                                   : Yes











The Dark Knight (2008) IMAX 1080p BluRay x264 Dual Audio [Hindi DD2.0 - English DD5.1] - Esub ~ Ranvijay

Format                                   : Matroska
Format version                           : Version 4 / Version 2
File size                                : 5.53 GiB
Duration                                 : 2 h 32 min
Overall bit rate                         : 5 203 kb/s
Movie name                               : The Dark Knight (2008) IMAX 1080p BluRay x264 Dual Audio [Hindi DD2.0 - English DD5.1] - Esub ~ Ranvijay

Video
ID                                       : 1
Format                                   : AVC
Duration                                 : 2 h 32 min
Bit rate                                 : 4 524 kb/s
Width                                    : 1 920 pixels
Height                                   : 1 080 pixels
Display aspect ratio                     : 16:9
Frame rate mode                          : Constant
Frame rate                               : 23.976 (24000/1001) FPS
Color space                              : YUV
Chroma subsampling                       : 4:2:0
Bit depth                                : 8 bits
Scan type                                : Progressive
Bits/(Pixel*Frame)                       : 0.091
Stream size                              : 4.81 GiB (87%)
Title                                    : ~Ranvijay~
Language                                 : English
Default                                  : Yes
Forced                                   : No

Audio #1
ID                                       : 2
Format                                   : AC-3
Format/Info                              : Audio Coding 3
Codec ID                                 : A_AC3
Duration                                 : 2 h 32 min
Bit rate mode                            : Constant
Bit rate                                 : 224 kb/s
Channel(s)                               : 2 channels
Channel positions                        : Front: L R
Sampling rate                            : 48.0 kHz
Frame rate                               : 31.250 FPS (1536 SPF)
Bit depth                                : 16 bits
Compression mode                         : Lossy
Delay relative to video                  : 1 s 54 ms
Stream size                              : 244 MiB (4%)
Title                                    : ~Ranvijay~
Language                                 : Hindi
Service kind                             : Complete Main
Default                                  : Yes
Forced                                   : No

Audio #2
ID                                       : 3
Format                                   : AC-3
Format/Info                              : Audio Coding 3
Codec ID                                 : A_AC3
Duration                                 : 2 h 32 min
Bit rate mode                            : Constant
Bit rate                                 : 448 kb/s
Channel(s)                               : 6 channels
Channel positions                        : Front: L C R, Side: L R, LFE
Sampling rate                            : 48.0 kHz
Frame rate                               : 31.250 FPS (1536 SPF)
Bit depth                                : 16 bits
Compression mode                         : Lossy
Stream size                              : 488 MiB (9%)
Title                                    : ~Ranvijay~
Language                                 : English
Service kind                             : Complete Main
Default                                  : No
Forced                                   : No

Text
ID                                       : 4
Format                                   : VobSub
Muxing mode                              : zlib
Codec ID                                 : S_VOBSUB
Codec ID/Info                            : Picture based subtitle format used on DVDs
Duration                                 : 2 h 30 min
Bit rate                                 : 6 869 b/s
Count of elements                        : 2010
Stream size                              : 7.40 MiB (0%)
Title                                    : ~Ranvijay~
Language                                 : English
Default                                  : Yes
Forced                                   : Yes














The Dark Knight Rises (2012) IMAX 1080p BluRay x264 Dual Audio [Hindi 5.1 - English DD5.1] - Esub ~ Ranvijay

Format                                   : Matroska
Format version                           : Version 4 / Version 2
File size                                : 5.96 GiB
Duration                                 : 2 h 44 min
Overall bit rate                         : 5 188 kb/s
Movie name                               : The Dark Knight Rises (2012) IMAX 1080p BluRay x264 Dual Audio [Hindi 5.1 - English DD5.1] - Esub ~ Ranvijay

Video
ID                                       : 1
Format                                   : AVC
Duration                                 : 2 h 44 min
Bit rate                                 : 4 572 kb/s
Width                                    : 1 920 pixels
Height                                   : 1 080 pixels
Display aspect ratio                     : 16:9
Frame rate mode                          : Constant
Frame rate                               : 23.976 (24000/1001) FPS
Color space                              : YUV
Chroma subsampling                       : 4:2:0
Bit depth                                : 8 bits
Scan type                                : Progressive
Bits/(Pixel*Frame)                       : 0.092
Stream size                              : 5.25 GiB (88%)
Title                                    : ~Ranvijay~
Language                                 : English
Default                                  : Yes
Forced                                   : No

Audio #1
ID                                       : 2
Format                                   : AC-3
Format/Info                              : Audio Coding 3
Codec ID                                 : A_AC3
Duration                                 : 2 h 44 min
Bit rate mode                            : Constant
Bit rate                                 : 224 kb/s
Channel(s)                               : 6 channels
Channel positions                        : Front: L C R, Side: L R, LFE
Sampling rate                            : 48.0 kHz
Frame rate                               : 31.250 FPS (1536 SPF)
Bit depth                                : 16 bits
Compression mode                         : Lossy
Stream size                              : 264 MiB (4%)
Title                                    : ~Ranvijay~
Language                                 : Hindi
Service kind                             : Complete Main
Default                                  : Yes
Forced                                   : No

Audio #2
ID                                       : 3
Format                                   : AC-3
Format/Info                              : Audio Coding 3
Codec ID                                 : A_AC3
Duration                                 : 2 h 44 min
Bit rate mode                            : Constant
Bit rate                                 : 384 kb/s
Channel(s)                               : 6 channels
Channel positions                        : Front: L C R, Side: L R, LFE
Sampling rate                            : 48.0 kHz
Frame rate                               : 31.250 FPS (1536 SPF)
Bit depth                                : 16 bits
Compression mode                         : Lossy
Stream size                              : 452 MiB (7%)
Title                                    : ~Ranvijay~
Language                                 : English
Service kind                             : Complete Main
Default                                  : No
Forced                                   : No

Text
ID                                       : 4
Format                                   : VobSub
Muxing mode                              : zlib
Codec ID                                 : S_VOBSUB
Codec ID/Info                            : Picture based subtitle format used on DVDs
Duration                                 : 2 h 43 min
Bit rate                                 : 6 037 b/s
Count of elements                        : 1913
Stream size                              : 7.06 MiB (0%)
Title                                    : Eng PGS
Language                                 : English
Default                                  : Yes
Forced                                   : Yes














#TheFighter -> To avoid fakes, ALWAYS check that the torrent was added on prostitutki-v-nijnem-novgorode.com by TheFighter

http://prostitutki-v-nijnem-novgorode.com/



Download The Dark Knight Trilogy (2005-2012) 1080p BluRay Dual Audio [Hindi - English] - Esub ~Ranvijay torrent


Comments (please add your comment)
No comments



Home - Browse Torrents - Upload Torrent - Stat - Forum - FAQ - Login
prostitutki-v-nijnem-novgorode.com is in compliance with copyrights
2006-2018 prostitutki-v-nijnem-novgorode.com
SitemapPorovnat ceny | Donna Spangler | The Fault In Our Stars Vaughn Stein | HD Ali's Wedding | Datenschutz