prostitutki-v-nijnem-novgorode.com - The Largest Bittorent System Login   |    Register
Latest Articles
Most searched
Hot torrents
Movie Torrents
View Torrent Info: Searching (2018) [720p] [YTS] [YIFY]
View Torrent Info: Speed Kills (2018) [720p] [YTS] [YIFY]
View Torrent Info: The Princess Switch (2018) [720p] [YTS] [YIFY]
View Torrent Info: The Marine 6: Close Quarters (2018) [720p] [YTS] [YIFY]
View Torrent Info: The Clovehitch Killer (2018) [720p] [YTS] [YIFY]
View Torrent Info: Jonathan (2018) [720p] [YTS] [YIFY]
View Torrent Info: Never Heard (2018) [720p] [YTS] [YIFY]
View Torrent Info: The Long Dumb Road (2018) [720p] [YTS] [YIFY]
View Torrent Info: The Ballad of Buster Scruggs (2018) [720p] [YTS] [YIFY]
View Torrent Info: Broken Contract (2018) [720p] [YTS] [YIFY]
Hot torrents
TV Torrents
View Torrent Info: The.Flash.2014.S05E05.HDTV.x264-SVA[eztv]
View Torrent Info: Arrow.S07E05.HDTV.x264-SVA[eztv]
View Torrent Info: DCs.Legends.of.Tomorrow.S04E04.HDTV.x264-SVA[eztv]
View Torrent Info: The.Good.Doctor.S02E07.HDTV.x264-KILLERS[eztv]
View Torrent Info: Titans.2018.S01E06.XviD-AFG[eztv]
View Torrent Info: Supergirl.S04E06.HDTV.x264-SVA[eztv]
View Torrent Info: Chicago.Med.S04E08.HDTV.x264-SVA[eztv]
View Torrent Info: The.Walking.Dead.S09E07.HDTV.x264-SVA[eztv]
View Torrent Info: The.Big.Bang.Theory.S12E09.HDTV.x264-SVA[eztv]
View Torrent Info: Manifest.S01E07.HDTV.x264-CRAVERS[eztv]
prostitutki-v-nijnem-novgorode.com > Categories > Movies torrents > Dubbed /Dual Audio torrents


Browse Movies torrents

The Dark Knight Rises (2012) 1080p[Dual_Audio][ENG(5.1)-HINDI(2ch)]~{PHDR}~ torrent



Download torrent: Download The Dark Knight Rises (2012) 1080p[Dual_Audio][ENG(5.1)-HINDI(2ch)]~{PHDR}~ torrent Magnet link Bookmark Torrent: The Dark Knight Rises (2012) 1080p[Dual_Audio][ENG(5.1)-HINDI(2ch)]~{PHDR}~ The Dark Knight Rises (2012) 1080p[Dual_Audio][ENG(5.1)-HINDI(2ch)]~{PHDR}~ torrent | if not working, try instead: Magnet Link
Info hash: 728818E8CF3911CBA91C54D04F4FF67B6958E4FF
Category: Categories > Movies torrents > Dubbed /Dual Audio torrents
Trackers:
7    View all torrent trackers >
Health:
 seeds: 0 ,  leechers: 0 |  Update >
Total Size: 5.90 GB
Torrent status: Added by trusted uploader Added by trusted uploader Trusted Uploader Site Friend Superman Sun
Uploader: Trusted Uploader Site Friend Superman Sun
Torrent added: 2017-10-23 08:40:56
 

Download The Dark Knight Rises (2012) 1080p[Dual_Audio][ENG(5.1)-HINDI(2ch)]~{PHDR}~ torrent if not working, try downloading torrent using Download The Dark Knight Rises (2012) 1080p[Dual_Audio][ENG(5.1)-HINDI(2ch)]~{PHDR}~ via Magnet Link




Torrent Description

Code:



The Dark Knight Rises (2012) 1080p[Dual_Audio][ENG(5.1)-HINDI(2ch)]~{PHDR}~



General

Complete name : The Dark Knight Rises 1080p[Dual Audio][ENG(5.1)-HINDI(2ch)]~{PHDR}~
Format : Matroska
Format version : Version 2
File size : 5.84 GiB
Duration : 2h 44mn
Overall bit rate : 5 077 Kbps


Video
ID : 1
Format : AVC
Format/Info : Advanced Video Codec
Format profile : [email protected]
Format settings, CABAC : Yes
Format settings, ReFrames : 4 frames
Muxing mode : Header stripping
Codec ID : V_MPEG4/ISO/AVC
Duration : 2h 44mn
Bit rate : 4 200 Kbps
Width : 1 920 pixels
Height : 1 080 pixels
Display aspect ratio : 16:9
Frame rate mode : Constant
Frame rate : 23.976 fps
Color space : YUV
Chroma subsampling : 4:2:0
Bit depth : 8 bits
Scan type : Progressive
Bits/(Pixel*Frame) : 0.084
Stream size : 4.73 GiB (81%)
Writing library : x264 core 129 r2230 1cffe9f
Forced : No

Audio #1
ID : 2
Format : AC-3
Format/Info : Audio Coding 3
Mode extension : CM (complete main)
Format settings, Endianness : Big
Muxing mode : Header stripping
Codec ID : A_AC3
Duration : 2h 44mn
Bit rate mode : Constant
Bit rate : 224 Kbps
Channel(s) : 2 channels
Channel positions : Front: L R
Sampling rate : 48.0 KHz
Bit depth : 16 bits
Compression mode : Lossy
Stream size : 264 MiB (4%)
Title : Original VCD~{PHDR}~
Language : Hindi
Default : Yes
Forced : No

Audio #2
ID : 3
Format : AC-3
Format/Info : Audio Coding 3
Mode extension : CM (complete main)
Format settings, Endianness : Big
Muxing mode : Header stripping
Codec ID : A_AC3
Duration : 2h 44mn
Bit rate mode : Constant
Bit rate : 640 Kbps
Channel(s) : 6 channels
Channel positions : Front: L C R, Side: L R, LFE
Sampling rate : 48.0 KHz
Bit depth : 16 bits
Compression mode : Lossy
Stream size : 753 MiB (13%)
Language : English
Default : No
Forced : No

Text
ID : 4
Format : PGS
Muxing mode : zlib
Codec ID : S_HDMV/PGS
Codec ID/Info : The same subtitle format used on BDs/HD-DVDs
Title : BLURAY SDH
Language : English
Default : Yes
Forced : No









NOTE:



1. SEEDING FROM HIGH SPEED SERVER, ENJOY MAX DOWNLOAD SPEED

2.BEWARE OF DOOMSDAYDJ

3.HELP US-(1337x.TO) THROUGH DONATING BITCOIN 3Qpdm4ckJ64irx1Nuyw9ZCCvc2qxoqkuBY



#MrPHDR -> To avoid fakes, ALWAYS check that the torrent was added on prostitutki-v-nijnem-novgorode.com by MrPHDR

http://prostitutki-v-nijnem-novgorode.com/



Download The Dark Knight Rises (2012) 1080p[Dual_Audio][ENG(5.1)-HINDI(2ch)]~{PHDR}~ torrent


Comments (please add your comment)
No comments



Home - Browse Torrents - Upload Torrent - Stat - Forum - FAQ - Login
prostitutki-v-nijnem-novgorode.com is in compliance with copyrights
2006-2018 prostitutki-v-nijnem-novgorode.com
SitemapVirgin Mobile Market Entry Strategy | Ток-шоу | HD Nicholas and Alexandra (1971) Blasenschwche | Watch Movie | Boy/Girl Big Tits, Huge Boobs, Mega Busty! Enjoy!